Hà Nội, Hà Nội (2006) 720p HDTV DD5.1 x264 – CHDTV

Code:

General
UniqueID : 209140209958476436946923212515344973609 (0x9D56F07589095B94A364D14DB15CFF29)
Complete name : F:\压制\电影\CHC\河内,河内\Hanoi,Hanoi.2006.720p.HDTV.x264-CHDTV.mkv
Format : Matroska
File size : 4.36 GiB
Duration : 1h 30mn
Overall bit rate : 6 936 Kbps
Encoded date : UTC 2010-12-30 22:31:35
Writing application : mkvmerge v2.9.9 ('Tutu') built on Nov 25 2009 21:13:32
Writing library : libebml v0.7.9 + libmatroska v0.8.1
Video #1
ID : 1
Format : AVC
Format/Info : Advanced Video Codec
Format profile : [email protected]
Format settings, CABAC : Yes
Format settings, ReFrames : 9 frames
Codec ID : V_MPEG4/ISO/AVC
Duration : 1h 30mn
Bit rate : 6 487 Kbps
Width : 1 280 pixels
Height : 692 pixels
Display aspect ratio : 1.850
Frame rate : 25.000 fps
Color space : YUV
Chroma subsampling : 4:2:0
Bit depth : 8 bits
Scan type : Progressive
Bits/(Pixel*Frame) : 0.293
Stream size : 3.99 GiB (92%)
Writing library : x264 core 112 r1834 a51816a
Language : English
Audio #2
ID : 2
Format : AC-3
Format/Info : Audio Coding 3
Mode extension : CM (complete main)
Codec ID : A_AC3
Duration : 1h 30mn
Bit rate mode : Constant
Bit rate : 448 Kbps
Channel(s) : 6 channels
Channel positions : Front: L C R, Side: L R, LFE
Sampling rate : 48.0 KHz
Bit depth : 16 bits
Compression mode : Lossy
Stream size : 289 MiB (6%)





Trích:

Hà Nội, Hà Nội kể về một nhân vật nữ người Trung Quốc sang Việt Nam thực hiện lời hứa với bà ngoại. Bà ngoại cô là người Trung Quốc nhưng từng sống và mở một phòng khám bệnh Đông y thời kỳ chiến tranh tại Việt Nam . Trong một trận bom tại sân ga, bà đã để thất lạc đứa cháu. Sau nhiều năm, cô gái trở lại Việt Nam theo lời trăng trối phút lâm chung của bà ngoại để tìm lại đứa cháu thất lạc năm xưa của bà. Trải qua cuộc hành trình gian nan vất vả, cô đã tìm được người cháu thất lạc ấy, đó chính là người đã cho cô đi nhờ xe và giúp cô suốt chặng đường dài.



5% recovery record + 5 recovery volumes

Code:



Sub Việt có sẵn trong phim :) Hình như cũng là audio Việt luôn :D

Bạn có thích bài viết này không?