The Pacific 2010 mHD 720p BluRay AC3 x264-EPiK

movie info
GENRE………: Drama | History | War
IMDB RATING…: 8.4/10 (11,626 votes)
LINK……….: The Pacific (TV mini-series 2010) – IMDb

Code:

General
Complete name : E:\The.Pacific.2010.mHD.720p.BluRay.AC3.x264-EPiK\[email protected]org.mkv
Format : Matroska
File size : 1.29 GiB
Duration : 54mn 57s
Overall bit rate : 3 349 Kbps
Encoded date : UTC 2010-11-16 07:41:09
Writing application : mkvmerge v4.3.0 ('Escape from the Island') built on Sep 5 2010 10:30:51
Writing library : libebml v1.0.0 + libmatroska v1.0.0

Video
ID : 2
Format : AVC
Format/Info : Advanced Video Codec
Format profile : [email protected]
Format settings, CABAC : Yes
Format settings, ReFrames : 7 frames
Codec ID : V_MPEG4/ISO/AVC
Duration : 54mn 57s
Bit rate : 2 835 Kbps
Width : 1 280 pixels
Height : 720 pixels
Display aspect ratio : 16:9
Frame rate : 23.976 fps
Color space : YUV
Chroma subsampling : 4:2:0
Bit depth : 8 bits
Scan type : Progressive
Bits/(Pixel*Frame) : 0.128
Stream size : 1.09 GiB (85%)
Writing library : x264 core 104 r1703 cd21d05
Language : English

Audio
ID : 1
Format : AC-3
Format/Info : Audio Coding 3
Mode extension : CM (complete main)
Codec ID : A_AC3
Duration : 54mn 57s
Bit rate mode : Constant
Bit rate : 448 Kbps
Channel(s) : 6 channels
Channel positions : Front: L C R, Side: L R, LFE
Sampling rate : 48.0 KHz
Bit depth : 16 bits
Stream size : 176 MiB (13%)
Language : English

Text #1
ID : 3
Format : UTF-8
Codec ID : S_TEXT/UTF8
Codec ID/Info : UTF-8 Plain Text
Title : English
Language : English

Text #2
ID : 4
Format : UTF-8
Codec ID : S_TEXT/UTF8
Codec ID/Info : UTF-8 Plain Text
Language : Vietnamese


Torrent link:

Code:

http://all.hdvnbits.org/the_pacific_2010_mhd_720p_bluray_ac3_x264_epik_t2666.html

Direct link:

Code:

http://mega.1280.com/file/SU61B5CFC3/
http://mega.1280.com/file/76197NVD2G/
http://mega.1280.com/file/QWOHYF8W0D/
http://mega.1280.com/file/AN5MDW45GG/
http://mega.1280.com/file/FIQ1YHW4IW/
http://mega.1280.com/file/VE3UROO90L/
http://mega.1280.com/file/9CO3AIZDO3/
http://mega.1280.com/file/1YFE53AES6/
http://mega.1280.com/file/WXDQIEFZTV/
http://mega.1280.com/file/DJC7KTLIM5/
http://mega.1280.com/file/5PZPG7OVH0/
http://mega.1280.com/file/3JGB0DC6W1/
http://mega.1280.com/file/ION6BHLECB/
http://mega.1280.com/file/3ENH3RLMXP/
http://mega.1280.com/file/URE49VQ7MG/
http://mega.1280.com/file/XQ6NQSIE4F/
http://mega.1280.com/file/FHVA6PWDH5/
http://mega.1280.com/file/WNX5JHLE3D/
http://mega.1280.com/file/3Z52XJGFXF/
http://mega.1280.com/file/QQCMK7WDDH/
http://mega.1280.com/file/W5DOPOGTYP/
http://mega.1280.com/file/GKJCMXBJZO/
http://mega.1280.com/file/7ID66KI61G/
http://mega.1280.com/file/LBTDOPJVIH/
http://mega.1280.com/file/9LRXBPW0PK/
http://mega.1280.com/file/Q88FT95YGY/
http://mega.1280.com/file/T89QY102D8/
http://mega.1280.com/file/DBVV3AO20K/
http://mega.1280.com/file/QQOZBMP80C/
http://mega.1280.com/file/IJLCA0Y16Y/
http://mega.1280.com/file/ZJFY7A7BMD/
http://mega.1280.com/file/523C1LZBRV/
http://mega.1280.com/file/LRT6LXJQ2S/
http://mega.1280.com/file/BNDKDQ4YXR/
http://mega.1280.com/file/H6BDTZIY1C/
http://mega.1280.com/file/4Y4RO7OF07/
http://mega.1280.com/file/SFD8UAZY1D/
http://mega.1280.com/file/3OZSM3JJY6/
http://mega.1280.com/file/IYT9E71353/
http://mega.1280.com/file/Q2DT4QVZHX/
http://mega.1280.com/file/ITFDKM9VH4/
http://mega.1280.com/file/7WG2KBYYWW/
http://mega.1280.com/file/4XLU2VNC5L/
http://mega.1280.com/file/TYSOJ0CPOO/
http://mega.1280.com/file/HQS1AQPU7X/
http://mega.1280.com/file/3D6SOF88DU/
http://mega.1280.com/file/627MA4JJC2/
http://mega.1280.com/file/FVT76ZZYO5/
http://mega.1280.com/file/3DR3SN9SPD/
http://mega.1280.com/file/PUOEHBZ563/
http://mega.1280.com/file/N7NTMIN9CK/
http://mega.1280.com/file/9ERJPDYXBD/
http://mega.1280.com/file/LWIKDFNQXG/
http://mega.1280.com/file/J7SEYM73T2/
http://mega.1280.com/file/WNXMAE6EE6/
http://mega.1280.com/file/B2GVNWJ4D6/
http://mega.1280.com/file/R93UPFBH5S/
http://mega.1280.com/file/JR4UZXGEPH/
http://mega.1280.com/file/7H7PA7CDLE/
http://mega.1280.com/file/39KHPV5DBW/
http://mega.1280.com/file/NJXE7PFU7V/
http://mega.1280.com/file/AA4K23WEJK/
http://mega.1280.com/file/EZHN3N65AU/
http://mega.1280.com/file/S842L4V94R/
http://mega.1280.com/file/RRW8DWEM3E/
http://mega.1280.com/file/T28L38LHBN/
http://mega.1280.com/file/S247193TAJ/
http://mega.1280.com/file/EW113Z8OA6/
http://mega.1280.com/file/8KJK523ORR/


Password giải nén: all.hdvnbits.org

Bạn có thích bài viết này không?