Code:

    Movie name                      : Ice.Age.3.Dawn.Of.The.Dinosaurs.2009.x264.m576p.Bluray-kHAn
    Format                          : Matroska
    File size                        : 1.38 GiB
    Duration                        : 1h 34mn
    Overall bit rate                : 2 099 Kbps
    ****************************************************************************************
    Video :
    ******
    Duration                        : 1h 34mn
    Bit rate                        : 1 714 Kbps
    Width                            : 1 024 pixels
    Height                          : 560 pixels
    Display aspect ratio            : 16:9
    Frame rate                      : 23.976 fps
    Stream size                      : 1.10 GiB (80%)
    ****************************************************************************************
    Audio :
    ******
    Format                          : AC-3
    Codec ID                        : A_AC3
    Bit rate                        : 384 Kbps
    Channel(s)                      : 6 channels
    Sampling rate                    : 48.0 KHz
    Stream size                      : 258 MiB (18%)
    ****************************************************************************************
    Subs & IMDB :
    *************
    Subtitles                        : http://subscene.com/Ice-Age-3-Dawn-of-the-Dinosaurs/subtitles-76285.aspx
    Source                          : Ice.Age.Dawn.Of.The.Dinosaurs.720p.BluRay.x264-METiS
    Info                            : http://imdb.com/title/tt1080016
    Encoded By KHaledALnazy123


[IMG][/IMG]

Link các host có thể thay thế cho nhau

Code:

http://www.mediafire.com/?a8bzc84rk69wk

Code:

http://www.megaupload.com/?d=V9WLYTAC
http://www.megaupload.com/?d=T42K97ED
http://www.megaupload.com/?d=CA44GXF1
http://www.megaupload.com/?d=I1TC58AD
http://www.megaupload.com/?d=B5F2ID4W
http://www.megaupload.com/?d=YB1F6V60
http://www.megaupload.com/?d=3JMEFTMM
http://www.megaupload.com/?d=LNBWIEKL


Bạn có thích bài viết này không?