Code:

Câu chuyện xoay quanh ba sinh viên kỹ sư – Rancho (do Aamir thủ vai),
Farhan Qureshi (do Madhavan thủ vai) và Raju Rastogi (do Sharman thủ vai) – và
cuộc hành trình của họ. Bộ phim cho thấy mỗi khía cạnh trong cuộc sống của
từng người bao gồm mối tình giữa Rancho và Pia (do Kareena thủ vai) và mâu
thuẫn của anh với giáo viên Viru Sahastrabudhhe (do Boman thủ vai)

“3 Idiots” kể về sự ảnh hưởng của Rancho tới hai người bạn và dạy cho họ sống
cuộc sống của riêng mình. Nhưng bỗng một ngày anh chợt biến mất. Sau đó
Farhan và Raju bắt đầu cuộc tìm kiếm Rancho để rồi cuối cùng nhận ra điều bí mật
đằng sau sự biến mất này của Rancho.

Nhạc phim “3 Idiots” đã ở vị trí đầu bảng xếp hạng với các ca khúc như 'Aal izz well',
 'Zoobi doobi', 'Jaane nahin denge tujhe' và 'Give me some sunshine' cũng đang
tiến dần tới vị trí đầu đầu bảng xếp hạng...


Code:

Format                          : Matroska
File size                        : 3.71 GiB
Duration                        : 2h 51mn
Overall bit rate                : 3 100 Kbps
Encoded date                    : UTC 2010-12-06 01:24:30
Writing application              : mkvmerge v4.3.0 ('Escape from the Island') built on Sep  5 2010 10:30:51
Writing library                  : libebml v1.0.0 + libmatroska v1.0.0

Video
ID                              : 1
Format                          : AVC
Format/Info                      : Advanced Video Codec
Format profile                  : [email protected]
Format settings, CABAC          : Yes
Format settings, ReFrames        : 9 frames
Codec ID                        : V_MPEG4/ISO/AVC
Duration                        : 2h 51mn
Bit rate                        : 2 650 Kbps
Width                            : 1 280 pixels
Height                          : 544 pixels
Display aspect ratio            : 2.35:1
Frame rate                      : 24.000 fps
Color space                      : YUV
Chroma subsampling              : 4:2:0
Bit depth                        : 8 bits
Scan type                        : Progressive
Bits/(Pixel*Frame)              : 0.159
Stream size                      : 3.10 GiB (84%)
Writing library                  : x264 core 105 r1724 b02df7b
Encoding settings                : cabac=1 / ref=9 / deblock=1:-3:-3 / analyse=0x3:0x133 / me=umh / subme=9 / psy=1 / psy_rd=1.00:0.00 / mixed_ref=1 / me_range=24 / chroma_me=1 / trellis=2 / 8x8dct=1 / cqm=0 / deadzone=21,11 / fast_pskip=1 / chroma_qp_offset=-2 / threads=4 / sliced_threads=0 / nr=0 / decimate=1 / interlaced=0 / constrained_intra=0 / bframes=5 / b_pyramid=2 / b_adapt=2 / b_bias=0 / direct=3 / weightb=1 / open_gop=0 / weightp=2 / keyint=250 / keyint_min=24 / scenecut=40 / intra_refresh=0 / rc_lookahead=60 / rc=2pass / mbtree=1 / bitrate=2650 / ratetol=1.0 / qcomp=0.60 / qpmin=10 / qpmax=51 / qpstep=4 / cplxblur=20.0 / qblur=0.5 / ip_ratio=1.40 / aq=1:1.00

Audio
ID                              : 2
Format                          : AC-3
Format/Info                      : Audio Coding 3
Mode extension                  : CM (complete main)
Codec ID                        : A_AC3
Duration                        : 2h 51mn
Bit rate mode                    : Constant
Bit rate                        : 448 Kbps
Channel(s)                      : 6 channels
Channel positions                : Front: L C R, Side: L R, LFE
Sampling rate                    : 48.0 KHz
Bit depth                        : 16 bits
Stream size                      : 548 MiB (14%)
Language                        : Hindi

Text
ID                              : 3
Format                          : UTF-8
Codec ID                        : S_TEXT/UTF8
Codec ID/Info                    : UTF-8 Plain Text
Language                        : English


Code:

http://www.mediafire.com/?8d7swf83k5n98

1 lời cảm ơn đến 4ko vì 1 bản rip rất đẹp, âm thanh tốt. dung lượng lớn nhưng lý do là fim dài gần 3h, các bạn lưu ý.

Bạn có thích bài viết này không?