Code:

General
Complete name : WALL-E.2008.720p.BluRay.DTS-ES.x264-ESiR (tm).mkv
Format : Matroska
File size : 3.72 GiB
Duration : 1h 37mn
Overall bit rate : 5 472 Kbps
Movie name : WALL·E (2008)
Encoded date : UTC 2010-05-12 13:40:57
Writing application : mkvmerge v3.3.0 ('Language') built on Mar 24 2010 14:59:24
Writing library : libebml v0.8.0 + libmatroska v0.9.0
Cover : Yes / Yes / Yes / Yes / Yes

Video
ID : 1
Format : AVC
Format/Info : Advanced Video Codec
Format profile : [email protected]
Format settings, CABAC : Yes
Format settings, ReFrames : 10 frames
Muxing mode : Container [email protected]
Codec ID : V_MPEG4/ISO/AVC
Duration : 1h 37mn
Bit rate : 3 640 Kbps
Width : 1 280 pixels
Height : 536 pixels
Display aspect ratio : 2.35:1
Frame rate : 23.976 fps
Color space : YUV
Chroma subsampling : 4:2:0
Bit depth : 8 bits
Scan type : Progressive
Bits/(Pixel*Frame) : 0.221
Stream size : 2.41 GiB (65%)
Writing library : x264 core 65 r1026M 745a48b

Language : English

Audio #1
ID : 2
Format : AC-3
Format/Info : Audio Coding 3
Mode extension : CM (complete main)
Codec ID : A_AC3
Duration : 1h 37mn
Bit rate mode : Constant
Bit rate : 320 Kbps
Channel(s) : 6 channels
Channel positions : Front: L C R, Side: L R, LFE
Sampling rate : 48.0 KHz
Video delay : 26ms
Stream size : 223 MiB (6%)
Title : Vietnamese audio remuxed by Phong Nguyen - HDVNBITS.ORG
Language : Vietnamese

Audio #2
ID : 3
Format : DTS
Format/Info : Digital Theater Systems
Format profile : ES
Codec ID : A_DTS
Duration : 1h 37mn
Bit rate mode : Constant
Bit rate : 1 510 Kbps
Channel(s) : 6 channels
Channel positions : Front: L C R, Side: L R, LFE
Sampling rate : 48.0 KHz
Bit depth : 24 bits
Stream size : 1.03 GiB (28%)
Language : English


Trích:

Trong tương lai, trái đất bị bao phủ bởi rác thải; để dọn dẹp, loài người buộc phải rời khỏi trái đất và thay thế vào đó là hàng triệu con rô-bốt nhỏ bé với nhiệm vụ thu dọn rác thải cho đến khi trái đất có thể ở được. Nhưng chương trình đó thất bại chỉ trừ một chú rô-bốt nhỏ bé vẫn chăm chỉ làm công việc của mình.
700 năm dọn dẹp rác rưởi trên hành tinh bằng cách nén rác thành từng khối lập phương, WALL-E – con rô-bốt duy nhất bị bỏ lại trên trái đất bắt đầu có một lỗi nhỏ trong hệ thống: phát triển tính cách của con người.

Rất ham hiểu biết, cực kỳ tò mò và một chút xíu cô đơn, hàng ngày, chú người máy tận tụy làm việc một mình, bên cạnh chỉ có một con gián. WALL-E lãng mạn mơ ước rằng một ngày cậu sẽ kết giao được với ai đó, và cuộc đời này hẳn còn nhiều điều thú vị hơn công việc buồn tẻ mà cậu làm hàng ngày.

Thế rồi EVE xuất hiện. EVE là cô người máy thăm dò có kiểu dáng đẹp, nhanh nhẹn, có thể bay và được trang bị súng laser. EVE thuộc hạm đội người máy được Phi trưởng của tàu Axiom (con tàu mẹ khổng lồ và sang trọng, là chỗ ở cho hàng ngàn con người) cử xuống trái đất để làm nhiệm vụ kiểm tra bí mật.

Theo đuổi EVE, WALL-E không thể ngờ rằng cậu sẽ vượt qua dải ngân hà và bước vào một chuyến phiêu lưu kỳ thú vượt xa sự tưởng tượng của chính mình.


download

Trích:


Bạn có thích bài viết này không?