Code:

General
Complete name : Monster, Inc. 2001 720p BluRay DTS-ES x264-DON (tm).mkv
Format : Matroska
File size : 4.24 GiB
Duration : 1h 32mn
Overall bit rate : 6 578 Kbps
Encoded date : UTC 2010-05-12 16:39:47
Writing application : mkvmerge v3.3.0 ('Language') built on Mar 24 2010 14:59:24
Writing library : libebml v0.8.0 + libmatroska v0.9.0
Cover : Yes / Yes / Yes

Video
ID : 1
Format : AVC
Format/Info : Advanced Video Codec
Format profile : [email protected]
Format settings, CABAC : Yes
Format settings, ReFrames : 9 frames
Muxing mode : Container [email protected]
Codec ID : V_MPEG4/ISO/AVC
Duration : 1h 32mn
Bit rate : 4 618 Kbps
Width : 1 280 pixels
Height : 692 pixels
Display aspect ratio : 1.850
Frame rate : 23.976 fps
Color space : YUV
Chroma subsampling : 4:2:0
Bit depth : 8 bits
Scan type : Progressive
Bits/(Pixel*Frame) : 0.217
Stream size : 2.89 GiB (68%)
Writing library : x264 core 67 r1163M 3f56e27

Language : English

Audio #1
ID : 2
Format : AC-3
Format/Info : Audio Coding 3
Format profile : Dolby Digital
Mode extension : CM (complete main)
Codec ID : A_AC3
Duration : 1h 32mn
Bit rate mode : Constant
Bit rate : 448 Kbps
Channel(s) : 2 channels
Channel positions : Front: L R
Sampling rate : 48.0 KHz
Video delay : 1s 130ms
Stream size : 296 MiB (7%)
Title : Vietnamese audio added by Phong Nguyen - HDVNBITS.ORG
Language : Vietnamese

Audio #2
ID : 3
Format : DTS
Format/Info : Digital Theater Systems
Format profile : ES
Codec ID : A_DTS
Duration : 1h 32mn
Bit rate mode : Constant
Bit rate : 1 510 Kbps
Channel(s) : 6 channels
Channel positions : Front: L C R, Side: L R, LFE
Sampling rate : 48.0 KHz
Bit depth : 24 bits
Stream size : 996 MiB (23%)
Title : DTS-ES 5.1 @ 1.5Mbit
Language : English



download

Trích:


Bạn có thích bài viết này không?