Tears of the Sun 2003 mHD BluRay x264-EPiK

Trích:

Bruce Willis vào vai đại uý hải quân Mỹ A.K. Waters và được phái đến Nigeria để giải cứu bác sĩ Lena Kendricks, một công dân nước Mỹ tình nguyện đi làm việc tại Nigeria. Nhưng khi Waters đến để giải cứu bác sĩ Kendricks vì Nigeria hiện tại đang gặp nhiều chuyển biến về chính trị; nhưng bác sĩ Kendricks từ chối quay trở lại Mỹ nếu không đem theo được những bệnh nhân của mình. Và để hoàn thành nhiệm vụ, Waters buộc phải dẫn theo một nhóm dân tị nạn trên đường đi đến biên giới Cameroon hòng thoát khỏi sự truy bắt của những tên nổi loạn…


[V-Z]

Code:

Format : Matroska
File size : 2.14 GiB
Duration : 2h 0mn
Overall bit rate : 2 537 Kbps
Movie name : Tears.of.the.Sun.2003.mHD.BluRay.x264-EPiK ~ all.hdvnbits.org
Encoded date : UTC 2011-04-30 03:12:38
Writing application : mkvmerge v4.7.0 ('Just Like You Imagined') built on Apr 21 2011 01:13:14
Writing library : libebml v1.2.0 + libmatroska v1.1.0

Video
ID : 1
Format : AVC
Format/Info : Advanced Video Codec
Format profile : [email protected]
Format settings, CABAC : Yes
Format settings, ReFrames : 8 frames
Codec ID : V_MPEG4/ISO/AVC
Duration : 2h 0mn
Bit rate : 2 038 Kbps
Width : 1 280 pixels
Height : 534 pixels
Display aspect ratio : 2.35:1
Frame rate : 23.976 fps
Color space : YUV
Chroma subsampling : 4:2:0
Bit depth : 8 bits
Scan type : Progressive
Bits/(Pixel*Frame) : 0.124
Stream size : 1.72 GiB (80%)
Title : EPiK ~ all.hdvnbits.org
Writing library : x264 core 115 r1947 b5a8ad7
Encoding settings : cabac=1 / ref=8 / deblock=1:-3:-3 / analyse=0x3:0x113 / me=umh / subme=9 / psy=1 / psy_rd=0.80:0.00 / mixed_ref=1 / me_range=16 / chroma_me=1 / trellis=2 / 8x8dct=1 / cqm=0 / deadzone=21,11 / fast_pskip=0 / chroma_qp_offset=-2 / threads=6 / sliced_threads=0 / nr=0 / decimate=0 / interlaced=0 / bluray_compat=0 / constrained_intra=0 / bframes=7 / b_pyramid=2 / b_adapt=2 / b_bias=0 / direct=3 / weightb=1 / open_gop=0 / weightp=2 / keyint=250 / keyint_min=23 / scenecut=40 / intra_refresh=0 / rc_lookahead=40 / rc=crf / mbtree=1 / crf=22.5 / qcomp=0.60 / qpmin=0 / qpmax=69 / qpstep=4 / ip_ratio=1.40 / aq=1:0.80
Language : English

Audio
ID : 2
Format : AC-3
Format/Info : Audio Coding 3
Mode extension : CM (complete main)
Codec ID : A_AC3
Duration : 2h 0mn
Bit rate mode : Constant
Bit rate : 448 Kbps
Channel(s) : 6 channels
Channel positions : Front: L C R, Side: L R, LFE
Sampling rate : 48.0 KHz
Bit depth : 16 bits
Compression mode : Lossy
Stream size : 387 MiB (18%)
Title : EPiK ~ all.hdvnbits.org
Language : English

Text
ID : 3
Format : UTF-8
Codec ID : S_TEXT/UTF8
Codec ID/Info : UTF-8 Plain Text
Language : English


Code:

http://www.mediafire.com/?x7mh3dtfq1gn8



Sub

Code:

http://subscene.com/tears-of-the-sun/subtitles-13825.aspx



Bạn có thích bài viết này không?