Code:

General
Complete name : Finding.Nemo.2003.720p.HDTV.DTS.x264-ESiR (tm).mkv
Format : Matroska
File size : 4.32 GiB
Duration : 1h 40mn
Overall bit rate : 6 153 Kbps
Movie name : Finding.Nemo.2003.720p.HDTV.DTS.x264-ESiR
Encoded date : UTC 2010-05-12 15:06:23
Writing application : mkvmerge v3.3.0 ('Language') built on Mar 24 2010 14:59:24
Writing library : libebml v0.8.0 + libmatroska v0.9.0
Cover : Yes / Yes

Video
ID : 1
Format : AVC
Format/Info : Advanced Video Codec
Format profile : [email protected]
Format settings, CABAC : Yes
Format settings, ReFrames : 9 frames
Muxing mode : Container [email protected]
Codec ID : V_MPEG4/ISO/AVC
Duration : 1h 40mn
Bit rate : 4 828 Kbps
Nominal bit rate : 5 460 Kbps
Width : 1 280 pixels
Height : 720 pixels
Display aspect ratio : 16:9
Frame rate : 23.976 fps
Color space : YUV
Chroma subsampling : 4:2:0
Bit depth : 8 bits
Scan type : Progressive
Bits/(Pixel*Frame) : 0.219
Stream size : 3.39 GiB (78%)
Title : Finding Nemo
Writing library : x264 core 54 svn-627
Language : English

Audio #1
ID : 2
Format : AC-3
Format/Info : Audio Coding 3
Format profile : Dolby Digital
Mode extension : CM (complete main)
Codec ID : A_AC3
Duration : 1h 40mn
Bit rate mode : Constant
Bit rate : 448 Kbps
Channel(s) : 2 channels
Channel positions : Front: L R
Sampling rate : 48.0 KHz
Video delay : 2ms
Stream size : 322 MiB (7%)
Title : Vietnamese audio added by Phong Nguyen - HDVNBITS.ORG
Language : Vietnamese

Audio #2
ID : 3
Format : DTS
Format/Info : Digital Theater Systems
Codec ID : A_DTS
Duration : 1h 40mn
Bit rate mode : Constant
Bit rate : 755 Kbps
Channel(s) : 6 channels
Channel positions : Front: L C R, Side: L R, LFE
Sampling rate : 48.0 KHz
Bit depth : 24 bits
Stream size : 542 MiB (12%)
Title : DTS 5.1
Language : English



download

Trích:


Bạn có thích bài viết này không?