Dinner for Schmucks 2010 mHD BluRay x264-EPiK

Code:

General
Complete name                    : Dinner for Schmucks 2010 mHD BluRay x264-EPiK
Format                          : Matroska
File size                        : 2.44 GiB
Duration                        : 1h 54mn
Overall bit rate                : 3 061 Kbps
Movie name                      : [email protected]
Encoded date                    : UTC 2010-12-20 00:44:34
Writing application              : mkvmerge v4.4.0 ('Die Wiederkehr') built on Oct 31 2010 21:52:48
Writing library                  : libebml v1.0.0 + libmatroska v1.0.0

Video
ID                              : 1
Format                          : AVC
Format/Info                      : Advanced Video Codec
Format profile                  : [email protected]
Format settings, CABAC          : Yes
Format settings, ReFrames        : 6 frames
Muxing mode                      : Header stripping
Codec ID                        : V_MPEG4/ISO/AVC
Duration                        : 1h 54mn
Bit rate                        : 2 552 Kbps
Width                            : 1 280 pixels
Height                          : 720 pixels
Display aspect ratio            : 16:9
Frame rate                      : 23.976 fps
Color space                      : YUV
Chroma subsampling              : 4:2:0
Bit depth                        : 8 bits
Scan type                        : Progressive
Bits/(Pixel*Frame)              : 0.115
Stream size                      : 2.03 GiB (83%)
Title                            : [email protected]
Language                        : English

Audio
ID                              : 2
Format                          : AC-3
Format/Info                      : Audio Coding 3
Mode extension                  : CM (complete main)
Muxing mode                      : Header stripping
Codec ID                        : A_AC3
Duration                        : 1h 54mn
Bit rate mode                    : Constant
Bit rate                        : 448 Kbps
Channel(s)                      : 6 channels
Channel positions                : Front: L C R, Side: L R, LFE
Sampling rate                    : 48.0 KHz
Bit depth                        : 16 bits
Compression mode                : Lossy
Stream size                      : 365 MiB (15%)
Title                            : [email protected]
Language                        : English


Mega1280:

Code:

http://mega.1280.com/folder/Y8U3VJE5SE

Bạn có thích bài viết này không?